Categorii
ultimate Uncategorized

Tenet 2020 HC Free Movie Torrent Download

Tenet 2020 HC

Tenet 2020 HC

Director: Christopher Nolan

Author: Christopher Nolan

Stars: John David Washington, Robert Pattinson, Elizabeth Debicki

Action / story:

In a word, Tenet, and fighting for the survival of the whole world, the main character travels through the twilight world of international espionage in a mission that will develop into something beyond real time.

Notes:

Remove print, reset RA, less flash and noise, color rebalance, brightness, contrast, blurry website logo, sharp image everywhere, 3 patterns

In general

Full name:

Format: AVI

Format / Information: Audio Video Interleave

File size: Gio

Duration: 2 24 min

Global transfer rate: 1684 kb / s

Subtitles: Korean with sometimes hard code.

Samples: (3)

Video

ID: 0

Format: MPEG-4 visual

Profile format: advanced

Format settings, BVOP: 2

Format settings, QPel: No.

Format settings, GMC: no war points

Format parameters, matrix: default ()

Codec ID: XVID

Codec ID / Tip: XviD

Duration: 2 24 min

Upload speed: 1542 kb / s

Width: 720 pixels

Height: 256 pixels

Screen ratio:

Frame speed: (30000/1001) FPS

Color space: YUV

Chromium sample reduction: 4: 2: 0

Bit depth: 8 pcs

Scan type: progressive

Compression mode: loss

Bits / (pixel frame *):

Stream size: GiB (92%)

Writing Library: XviD 64

Sound

ID: 1

Format: MPEG Audio

Format version: Version 1

Format profile: level 3

Codec ID: 55

Codec ID / Tip: MP3

Duration: 2 24 min

Baud rate mode: constant

Upload speed: 128 kbps

Channel (s): 2 channels

Sampling rate: kHz

Compression mode: loss

Current Size: 132 MiB (8%)

Alignment: aligned with common parts

Interlaced, duration: 24 ms (video image)

Videos:

Please seed as much as possible

Or at least 1: 1

Enjoy the peeps

80d02

Tenet 2020 HC

Tenet 2020 HC

Director: Christopher Nolan

Author: Christopher Nolan

Stars: John David Washington, Robert Pattinson, Elizabeth Debicki

Action / story:

In a word, Tenet, and fighting for the survival of the whole world, the main character travels through the twilight world of international espionage in a mission that will develop into something beyond real time.

Notes:

Remove print, reset RA, less flash and noise, color rebalance, brightness, contrast, blurry website logo, sharp image everywhere, 3 patterns

In general

Full name:

Format: AVI

Format / Information: Audio Video Interleave

File size: Gio

Duration: 2 24 min

Global transfer rate: 1684 kb / s

Subtitles: Korean with sometimes hard code.

Samples: (3)

Video

ID: 0

Format: MPEG-4 visual

Profile format: advanced

Format settings, BVOP: 2

Format settings, QPel: No.

Format settings, GMC: no war points

Format parameters, matrix: default ()

Codec ID: XVID

Codec ID / Tip: XviD

Duration: 2 24 min

Upload speed: 1542 kb / s

Width: 720 pixels

Height: 256 pixels

Screen ratio:

Frame speed: (30000/1001) FPS

Color space: YUV

Chromium sample reduction: 4: 2: 0

Bit depth: 8 pcs

Scan type: progressive

Compression mode: loss

Bits / (pixel frame *):

Stream size: GiB (92%)

Writing Library: XviD 64

Sound

ID: 1

Format: MPEG Audio

Format version: Version 1

Format profile: level 3

Codec ID: 55

Codec ID / Tip: MP3

Duration: 2 24 min

Baud rate mode: constant

Upload speed: 128 kbps

Channel (s): 2 channels

Sampling rate: kHz

Compression mode: loss

Current Size: 132 MiB (8%)

Alignment: aligned with common parts

Interlaced, duration: 24 ms (video image)

Videos:

Please seed as much as possible

Or at least 1: 1

Enjoy the peeps

Lasă un răspuns

Adresa ta de email nu va fi publicată.